Godzilla: City on the Edge of Battle (2018)

Gojira: kessen kidô zôshoku toshi (original title)|1h 41min | Animation, Action, Sci-Fi | 18 July 2018 (USA)

Humanity’s desperate battle to reclaim the Earth from Godzilla continues. The key to defeating the King of the Monsters may be Mechagodzilla, a robotic weapon thought to have been lost nearly 20,000 years ago.

Watch trailer

Media information

General
Format : Matroska
Format version : Version 4 / Version 2
File size : 827 MiB
Duration : 1 h 40 min
Overall bit rate : 1 146 kb/s
Movie name : Godzilla.City.on.the.Edge.of.Battle.2018.720p.WEB-DL.2CH.x264.AVC
Encoded date : UTC 2018-07-21 16:17:32
Writing application : mkvmerge v25.0.0 (‘Prog Noir’) 32-bit
Writing library : libebml v1.3.6 + libmatroska v1.4.9

Video
ID : 1
Format : AVC
Format/Info : Advanced Video Codec
Format profile : [email protected]
Format settings : CABAC / 4 Ref Frames
Format settings, CABAC : Yes
Format settings, RefFrames : 4 frames
Codec ID : V_MPEG4/ISO/AVC
Duration : 1 h 40 min
Bit rate : 1 000 kb/s
Width : 1 280 pixels
Height : 720 pixels
Display aspect ratio : 16:9
Frame rate mode : Constant
Frame rate : 23.976 (24000/1001) FPS
Color space : YUV
Chroma subsampling : 4:2:0
Bit depth : 8 bits
Scan type : Progressive
Bits/(Pixel*Frame) : 0.045
Stream size : 730 MiB (88%)
Default : Yes
Forced : No
Color range : Limited
Color primaries : BT.709
Transfer characteristics : BT.709
Matrix coefficients : BT.709

Audio
ID : 2
Format : AAC
Format/Info : Advanced Audio Codec
Format profile : HE-AAC / LC
Format settings : NBC
Codec ID : A_AAC-5
Duration : 1 h 40 min
Bit rate : 128 kb/s
Channel(s) : 2 channels
Channel positions : Front: L R
Sampling rate : 48.0 kHz / 24.0 kHz
Frame rate : 23.438 FPS (1024 SPF)
Compression mode : Lossy
Delay relative to video : -105 ms
Stream size : 92.3 MiB (11%)
Language : English
Default : Yes
Forced : No

Text #1
ID : 3
Format : ASS
Codec ID : S_TEXT/ASS
Codec ID/Info : Advanced Sub Station Alpha
Duration : 1 h 39 min
Bit rate : 113 b/s
Count of elements : 1351
Compression mode : Lossless
Stream size : 83.0 KiB (0%)
Language : English
Default : No
Forced : No

Text #2
ID : 4
Format : ASS
Codec ID : S_TEXT/ASS
Codec ID/Info : Advanced Sub Station Alpha
Duration : 1 h 40 min
Bit rate : 160 b/s
Count of elements : 1354
Compression mode : Lossless
Stream size : 117 KiB (0%)
Language : Arabic
Default : No
Forced : No

Text #3
ID : 5
Format : ASS
Codec ID : S_TEXT/ASS
Codec ID/Info : Advanced Sub Station Alpha
Duration : 1 h 40 min
Bit rate : 106 b/s
Count of elements : 1331
Compression mode : Lossless
Stream size : 77.8 KiB (0%)
Language : Danish
Default : No
Forced : No

Text #4
ID : 6
Format : ASS
Codec ID : S_TEXT/ASS
Codec ID/Info : Advanced Sub Station Alpha
Duration : 1 h 40 min
Bit rate : 110 b/s
Count of elements : 1342
Compression mode : Lossless
Stream size : 81.1 KiB (0%)
Language : German
Default : No
Forced : No

Text #5
ID : 7
Format : ASS
Codec ID : S_TEXT/ASS
Codec ID/Info : Advanced Sub Station Alpha
Duration : 1 h 40 min
Bit rate : 160 b/s
Count of elements : 1361
Compression mode : Lossless
Stream size : 118 KiB (0%)
Language : Greek
Default : No
Forced : No

Text #6
ID : 8
Format : ASS
Codec ID : S_TEXT/ASS
Codec ID/Info : Advanced Sub Station Alpha
Duration : 1 h 40 min
Bit rate : 105 b/s
Count of elements : 1352
Compression mode : Lossless
Stream size : 77.4 KiB (0%)
Language : Spanish
Default : No
Forced : No

Text #7
ID : 9
Format : ASS
Codec ID : S_TEXT/ASS
Codec ID/Info : Advanced Sub Station Alpha
Duration : 1 h 40 min
Bit rate : 113 b/s
Count of elements : 1337
Compression mode : Lossless
Stream size : 83.1 KiB (0%)
Language : Spanish
Default : No
Forced : No

Text #8
ID : 10
Format : ASS
Codec ID : S_TEXT/ASS
Codec ID/Info : Advanced Sub Station Alpha
Duration : 1 h 39 min
Bit rate : 106 b/s
Count of elements : 1274
Compression mode : Lossless
Stream size : 78.0 KiB (0%)
Language : Finnish
Default : No
Forced : No

Text #9
ID : 11
Format : ASS
Codec ID : S_TEXT/ASS
Codec ID/Info : Advanced Sub Station Alpha
Duration : 1 h 40 min
Bit rate : 117 b/s
Count of elements : 1346
Compression mode : Lossless
Stream size : 86.4 KiB (0%)
Language : French
Default : No
Forced : No

Text #10
ID : 12
Format : ASS
Codec ID : S_TEXT/ASS
Codec ID/Info : Advanced Sub Station Alpha
Duration : 1 h 40 min
Bit rate : 151 b/s
Count of elements : 1358
Compression mode : Lossless
Stream size : 111 KiB (0%)
Language : Hebrew
Default : No
Forced : No

Text #11
ID : 13
Format : ASS
Codec ID : S_TEXT/ASS
Codec ID/Info : Advanced Sub Station Alpha
Duration : 1 h 40 min
Bit rate : 114 b/s
Count of elements : 1322
Compression mode : Lossless
Stream size : 83.8 KiB (0%)
Language : Italian
Default : No
Forced : No

Text #12
ID : 14
Format : ASS
Codec ID : S_TEXT/ASS
Codec ID/Info : Advanced Sub Station Alpha
Duration : 1 h 39 min
Bit rate : 158 b/s
Count of elements : 1778
Compression mode : Lossless
Stream size : 115 KiB (0%)
Language : Japanese
Default : No
Forced : No

Text #13
ID : 15
Format : ASS
Codec ID : S_TEXT/ASS
Codec ID/Info : Advanced Sub Station Alpha
Duration : 1 h 40 min
Bit rate : 106 b/s
Count of elements : 1306
Compression mode : Lossless
Stream size : 78.1 KiB (0%)
Language : Korean
Default : No
Forced : No

Text #14
ID : 16
Format : ASS
Codec ID : S_TEXT/ASS
Codec ID/Info : Advanced Sub Station Alpha
Duration : 1 h 40 min
Bit rate : 103 b/s
Count of elements : 1311
Compression mode : Lossless
Stream size : 76.0 KiB (0%)
Language : Norwegian Bokmal
Default : No
Forced : No

Text #15
ID : 17
Format : ASS
Codec ID : S_TEXT/ASS
Codec ID/Info : Advanced Sub Station Alpha
Duration : 1 h 39 min
Bit rate : 88 b/s
Count of elements : 1197
Compression mode : Lossless
Stream size : 65.0 KiB (0%)
Language : Dutch
Default : No
Forced : No

Text #16
ID : 18
Format : ASS
Codec ID : S_TEXT/ASS
Codec ID/Info : Advanced Sub Station Alpha
Duration : 1 h 39 min
Bit rate : 93 b/s
Count of elements : 1316
Compression mode : Lossless
Stream size : 68.3 KiB (0%)
Language : Polish
Default : No
Forced : No

Text #17
ID : 19
Format : ASS
Codec ID : S_TEXT/ASS
Codec ID/Info : Advanced Sub Station Alpha
Duration : 1 h 39 min
Bit rate : 104 b/s
Count of elements : 1293
Compression mode : Lossless
Stream size : 76.8 KiB (0%)
Language : Portuguese
Default : No
Forced : No

Text #18
ID : 20
Format : ASS
Codec ID : S_TEXT/ASS
Codec ID/Info : Advanced Sub Station Alpha
Duration : 1 h 40 min
Bit rate : 106 b/s
Count of elements : 1279
Compression mode : Lossless
Stream size : 77.8 KiB (0%)
Language : Portuguese
Default : No
Forced : No

Text #19
ID : 21
Format : ASS
Codec ID : S_TEXT/ASS
Codec ID/Info : Advanced Sub Station Alpha
Duration : 1 h 40 min
Bit rate : 100 b/s
Count of elements : 1113
Compression mode : Lossless
Stream size : 73.4 KiB (0%)
Language : Swedish
Default : No
Forced : No

Text #20
ID : 22
Format : ASS
Codec ID : S_TEXT/ASS
Codec ID/Info : Advanced Sub Station Alpha
Duration : 1 h 40 min
Bit rate : 201 b/s
Count of elements : 1359
Compression mode : Lossless
Stream size : 147 KiB (0%)
Language : Thai
Default : No
Forced : No

Text #21
ID : 23
Format : ASS
Codec ID : S_TEXT/ASS
Codec ID/Info : Advanced Sub Station Alpha
Duration : 1 h 40 min
Bit rate : 109 b/s
Count of elements : 1353
Compression mode : Lossless
Stream size : 80.5 KiB (0%)
Language : Turkish
Default : No
Forced : No

Text #22
ID : 24
Format : ASS
Codec ID : S_TEXT/ASS
Codec ID/Info : Advanced Sub Station Alpha
Duration : 1 h 40 min
Bit rate : 99 b/s
Count of elements : 1352
Compression mode : Lossless
Stream size : 72.8 KiB (0%)
Language : Chinese
Default : No
Forced : No

Text #23
ID : 25
Format : ASS
Codec ID : S_TEXT/ASS
Codec ID/Info : Advanced Sub Station Alpha
Duration : 1 h 40 min
Bit rate : 106 b/s
Count of elements : 1353
Compression mode : Lossless
Stream size : 78.3 KiB (0%)
Language : Chinese
Default : No
Forced : No

[collapse]
Download Link(s)

Download

Direct download files get automatically deleted after a month or so. Posted on : 07/21/2018

[collapse]
Magnet Link

Magnet

Source : Godzilla.City.on.the.Edge.of.Battle.2018.JAPANESE.1080p.NF.WEBRip.DDP5.1.x264-NTG-3.11 GB

[collapse]

You may also like...

error: nah :p~