Blade Runner (1982)

R | 1h 57min | Sci-Fi, Thriller | 25 June 1982 (USA)

A blade runner must pursue and try to terminate four replicants who stole a ship in space and have returned to Earth to find their creator.

Watch trailer

Details

General
Format : Matroska
Format version : Version 4 / Version 2
File size : 812 MiB
Duration : 1 h 57 min
Overall bit rate : 965 kb/s
Movie name : Blade.runner.1982.final.cut.1080p.bluray.x265.HEVC
Encoded date : UTC 2018-08-15 13:38:42
Writing application : mkvmerge v25.0.0 (‘Prog Noir’) 32-bit
Writing library : libebml v1.3.6 + libmatroska v1.4.9

Video
ID : 1
Format : HEVC
Format/Info : High Efficiency Video Coding
Format profile : [email protected]@Main
Codec ID : V_MPEGH/ISO/HEVC
Duration : 1 h 57 min
Bit rate : 802 kb/s
Width : 1 920 pixels
Height : 800 pixels
Display aspect ratio : 2.40:1
Frame rate mode : Constant
Frame rate : 23.976 (24000/1001) FPS
Color space : YUV
Chroma subsampling : 4:2:0
Bit depth : 8 bits
Bits/(Pixel*Frame) : 0.022
Stream size : 675 MiB (83%)
Default : Yes
Forced : No
Color range : Limited
Color primaries : BT.709
Transfer characteristics : BT.709
Matrix coefficients : BT.709

Audio
ID : 2
Format : AAC
Format/Info : Advanced Audio Codec
Format profile : LC
Codec ID : A_AAC-2
Duration : 1 h 57 min
Bit rate : 161 kb/s
Channel(s) : 2 channels
Channel positions : Front: L R
Sampling rate : 48.0 kHz
Frame rate : 46.875 FPS (1024 SPF)
Compression mode : Lossy
Delay relative to video : -21 ms
Stream size : 135 MiB (17%)
Title : Stereo
Language : English
Default : Yes
Forced : No

Text
ID : 3
Format : ASS
Codec ID : S_TEXT/ASS
Codec ID/Info : Advanced Sub Station Alpha
Duration : 1 h 47 min
Bit rate : 49 b/s
Count of elements : 781
Compression mode : Lossless
Stream size : 39.1 KiB (0%)
Language : English
Default : Yes
Forced : Yes

[collapse]
Download

Download

[RE-UP]-Direct download files get automatically deleted after a month or so. Posted on : 08/15/2018

 

[collapse]
Magnet Link

Magnet

Blade.Runner.1982.Final.Cut.1080p.BluRay.x264.anoXmous-1.5 GB

[collapse]

You may also like...

error: nah :p~