Forever My Girl (2018)

PG | 1h 48min | Drama, Music, Romance | 19 January 2018 (USA)

After being gone for a decade a country star returns home to the love he left behind.

Watch trailer

Media information

General
Format : Matroska
Format version : Version 4 / Version 2
File size : 651 MiB
Duration : 1 h 47 min
Overall bit rate : 844 kb/s
Movie name : Forever.My.Girl.2018.720p.WEB-DL.2CH.x265.HEVC
Encoded date : UTC 2018-04-14 15:18:36
Writing application : mkvmerge v22.0.0 (‘At The End Of The World’) 32-bit
Writing library : libebml v1.3.5 + libmatroska v1.4.8

Video
ID : 1
Format : HEVC
Format/Info : High Efficiency Video Coding
Format profile : [email protected]@Main
Codec ID : V_MPEGH/ISO/HEVC
Duration : 1 h 47 min
Bit rate : 776 kb/s
Width : 1 280 pixels
Height : 528 pixels
Display aspect ratio : 2.40:1
Frame rate mode : Constant
Frame rate : 23.976 (24000/1001) FPS
Color space : YUV
Chroma subsampling : 4:2:0
Bit depth : 8 bits
Bits/(Pixel*Frame) : 0.048
Stream size : 598 MiB (92%)
Default : Yes
Forced : No

Audio
ID : 2
Format : AAC
Format/Info : Advanced Audio Codec
Format profile : HE-AAC / LC
Format settings : Explicit
Codec ID : A_AAC-2
Duration : 1 h 47 min
Bit rate : 66.2 kb/s
Channel(s) : 2 channels
Channel positions : Front: L R
Sampling rate : 48.0 kHz / 24.0 kHz
Frame rate : 23.438 FPS (1024 SPF)
Compression mode : Lossy
Delay relative to video : 23 ms
Stream size : 51.1 MiB (8%)
Language : English
Default : Yes
Forced : No

Text
ID : 3
Format : UTF-8
Codec ID : S_TEXT/UTF8
Codec ID/Info : UTF-8 Plain Text
Duration : 1 h 47 min
Bit rate : 72 b/s
Count of elements : 1952
Stream size : 56.7 KiB (0%)
Language : English
Default : Yes
Forced : No

[collapse]
Download Link(s)

Download

[RE-UP]-Direct download files get automatically deleted after a month or so. Posted on : 09/14/2018

[collapse]
Magnet Link

Magnet

Source : Forever.My.Girl.2018.1080p.WEB-DL.DD5.1.H264-FGT-3.75 GB

[collapse]

You may also like...

error: nah :p~