Predator (1987)

R | 1h 47min | Action, Sci-Fi, Thriller | 12 June 1987 (USA)

A team of commandos on a mission in a Central American jungle find themselves hunted by an extraterrestrial warrior.

Watch trailer

Media information

General
Format : Matroska
Format version : Version 4 / Version 2
File size : 651 MiB
Duration : 1 h 46 min
Overall bit rate : 853 kb/s
Movie name : Predator.1987.NEW.REMASTERED.720p.BluRay.2CH.x265.HEVC
Encoded date : UTC 2018-08-15 09:17:54
Writing application : mkvmerge v25.0.0 (‘Prog Noir’) 32-bit
Writing library : libebml v1.3.6 + libmatroska v1.4.9

Video
ID : 1
Format : HEVC
Format/Info : High Efficiency Video Coding
Format profile : [email protected]@Main
Codec ID : V_MPEGH/ISO/HEVC
Duration : 1 h 46 min
Bit rate : 788 kb/s
Width : 1 280 pixels
Height : 692 pixels
Display aspect ratio : 1.85:1
Frame rate mode : Constant
Frame rate : 23.976 (24000/1001) FPS
Color space : YUV
Chroma subsampling : 4:2:0
Bit depth : 8 bits
Bits/(Pixel*Frame) : 0.037
Stream size : 600 MiB (92%)
Default : Yes
Forced : No
Color range : Limited
Color primaries : BT.709
Transfer characteristics : BT.709
Matrix coefficients : BT.709

Audio
ID : 2
Format : AAC
Format/Info : Advanced Audio Codec
Format profile : HE-AAC / LC
Format settings : Explicit
Codec ID : A_AAC-2
Duration : 1 h 46 min
Bit rate : 64.0 kb/s
Channel(s) : 2 channels
Channel positions : Front: L R
Sampling rate : 48.0 kHz / 24.0 kHz
Frame rate : 23.438 FPS (1024 SPF)
Compression mode : Lossy
Delay relative to video : -4 ms
Stream size : 48.8 MiB (7%)
Default : Yes
Forced : No

Text
ID : 3
Format : UTF-8
Codec ID : S_TEXT/UTF8
Codec ID/Info : UTF-8 Plain Text
Duration : 1 h 46 min
Bit rate : 24 b/s
Count of elements : 595
Stream size : 19.0 KiB (0%)
Default : Yes
Forced : No

[collapse]
Download Link(s)

Download

Direct download files get automatically deleted after a month or so. Posted on : 08/15/2018

[collapse]
Magnet Link

Magnet

Source : Predator.1987.NEW.REMASTERED.1080p.BluRay.x264.DTS-SWTYBLZ-15.98 GB

[collapse]

You may also like...

error: nah :p~