Ricky Gervais: Humanity (2018)

TV-MA | 1h 18min | Documentary, Comedy | TV Special 13 March 2018

Live performance of British comedian Ricky Gervais filmed in London’s Eventim Apollow.

Watch trailer

Media information

General
Format : Matroska
Format version : Version 4 / Version 2
File size : 332 MiB
Duration : 1 h 18 min
Overall bit rate : 590 kb/s
Movie name : Ricky.Gervais.Humanity.2018.720p.WEBRip.2CH.x265.HEVC
Encoded date : UTC 2018-03-14 19:32:14
Writing application : mkvmerge v21.0.0 (‘Tardigrades Will Inherit The Earth’) 32-bit
Writing library : libebml v1.3.5 + libmatroska v1.4.8

Video
ID : 1
Format : HEVC
Format/Info : High Efficiency Video Coding
Format profile : [email protected]@Main
Codec ID : V_MPEGH/ISO/HEVC
Duration : 1 h 18 min
Bit rate : 520 kb/s
Width : 1 280 pixels
Height : 720 pixels
Display aspect ratio : 16:9
Frame rate mode : Constant
Frame rate : 25.000 FPS
Color space : YUV
Chroma subsampling : 4:2:0
Bit depth : 8 bits
Bits/(Pixel*Frame) : 0.023
Stream size : 292 MiB (88%)
Default : Yes
Forced : No

Audio
ID : 2
Format : AAC
Format/Info : Advanced Audio Codec
Format profile : HE-AAC / LC
Format settings : Explicit
Codec ID : A_AAC-2
Duration : 1 h 18 min
Bit rate : 67.8 kb/s
Channel(s) : 2 channels
Channel positions : Front: L R
Sampling rate : 48.0 kHz / 24.0 kHz
Frame rate : 23.438 FPS (1024 SPF)
Compression mode : Lossy
Delay relative to video : 23 ms
Stream size : 38.2 MiB (11%)
Default : Yes
Forced : No

Text #1
ID : 3
Format : UTF-8
Codec ID : S_TEXT/UTF8
Codec ID/Info : UTF-8 Plain Text
Duration : 1 h 17 min
Bit rate : 97 b/s
Count of elements : 1556
Stream size : 55.2 KiB (0%)
Language : English
Default : Yes
Forced : No

Text #2
ID : 4
Format : UTF-8
Codec ID : S_TEXT/UTF8
Codec ID/Info : UTF-8 Plain Text
Duration : 1 h 18 min
Bit rate : 95 b/s
Count of elements : 1657
Stream size : 54.8 KiB (0%)
Language : Swedish
Default : No
Forced : No

Text #3
ID : 5
Format : UTF-8
Codec ID : S_TEXT/UTF8
Codec ID/Info : UTF-8 Plain Text
Duration : 1 h 18 min
Bit rate : 89 b/s
Count of elements : 1455
Stream size : 51.6 KiB (0%)
Language : Norwegian
Default : No
Forced : No

Text #4
ID : 6
Format : UTF-8
Codec ID : S_TEXT/UTF8
Codec ID/Info : UTF-8 Plain Text
Duration : 1 h 18 min
Bit rate : 97 b/s
Count of elements : 1348
Stream size : 56.2 KiB (0%)
Language : German
Default : No
Forced : No

Text #5
ID : 7
Format : UTF-8
Codec ID : S_TEXT/UTF8
Codec ID/Info : UTF-8 Plain Text
Duration : 1 h 18 min
Bit rate : 90 b/s
Count of elements : 1242
Stream size : 52.1 KiB (0%)
Language : Finnish
Default : No
Forced : No

[collapse]
Download Link(s)

Download

Direct download files get automatically deleted after a month or so. Posted on : 03/14/2018

[collapse]
Magnet Link

Magnet

Source : Ricky.Gervais.Humanity.2018.1080p.WEB.x264-AMRAP-3.40 GB

[collapse]

You may also like...

error: nah :p~