Time Trap (2017)

1h 27min | Action, Adventure, Sci-Fi | 24 February 2018 (Japan)

A group of students become trapped inside a mysterious cave where they discover time passes differently underground than on the surface.

Watch trailer

Media information

General
Format : Matroska
Format version : Version 4 / Version 2
File size : 551 MiB
Duration : 1 h 27 min
Overall bit rate : 880 kb/s
Movie name : Time.Trap.2017.720p.BluRay.2CH.x265.HEVC
Encoded date : UTC 2018-08-16 19:08:56
Writing application : mkvmerge v25.0.0 (‘Prog Noir’) 32-bit
Writing library : libebml v1.3.6 + libmatroska v1.4.9

Video
ID : 1
Format : HEVC
Format/Info : High Efficiency Video Coding
Format profile : [email protected]@Main
Codec ID : V_MPEGH/ISO/HEVC
Duration : 1 h 27 min
Bit rate : 814 kb/s
Width : 1 212 pixels
Height : 544 pixels
Display aspect ratio : 2.228
Frame rate mode : Constant
Frame rate : 23.976 (24000/1001) FPS
Color space : YUV
Chroma subsampling : 4:2:0
Bit depth : 8 bits
Bits/(Pixel*Frame) : 0.051
Stream size : 510 MiB (93%)
Default : Yes
Forced : No
Color range : Limited
Color primaries : BT.709
Transfer characteristics : BT.709
Matrix coefficients : BT.709

Audio
ID : 2
Format : AAC
Format/Info : Advanced Audio Codec
Format profile : HE-AAC / LC
Format settings : Explicit
Codec ID : A_AAC-2
Duration : 1 h 27 min
Bit rate : 64.0 kb/s
Channel(s) : 2 channels
Channel positions : Front: L R
Sampling rate : 48.0 kHz / 24.0 kHz
Frame rate : 23.438 FPS (1024 SPF)
Compression mode : Lossy
Delay relative to video : -4 ms
Stream size : 40.1 MiB (7%)
Default : Yes
Forced : No

[collapse]
Download Link(s)

Download

No subs are available

Direct download files get automatically deleted after a month or so. Posted on : 08/16/2018

[collapse]
Magnet Link

Magnet

Source : Time.Trap.2017.720p.BluRay.x264-PFa-4.35 GB

[collapse]

You may also like...

error: nah :p~